<?xml version="1.0" standalone="no"?>
<!DOCTYPE svg PUBLIC "-//W3C//DTD SVG 1.1//EN" "http://www.w3.org/Graphics/SVG/1.1/DTD/svg11.dtd" >
<svg xmlns="http://www.w3.org/2000/svg" xmlns:xlink="http://www.w3.org/1999/xlink" version="1.1">
<metadata></metadata>
<defs>
<font id="orkneyregular" horiz-adv-x="1216" >
<font-face units-per-em="2048" ascent="1536" descent="-512" />
<missing-glyph horiz-adv-x="532" />
<glyph unicode="&#xfb01;" horiz-adv-x="1222" d="M725 1405q-131 0 -210 -73.5t-79 -201.5v-106h625v-1024h-182v883h-443v-883h-182v883h-172v141h172v115q0 190 125 303.5t328 113.5q180 0 356 -88v-165q-185 102 -338 102z" />
<glyph unicode="&#xfb02;" horiz-adv-x="1409" d="M1329 182l101 -123q-76 -79 -216 -79q-143 0 -228 84.5t-85 222.5v1089q-92 29 -180 29q-127 0 -206 -74t-79 -201v-106h269v-141h-269v-883h-182v883h-172v141h172v115q0 190 124.5 303.5t321.5 113.5q112 0 201 -24v4h180v-82h2v-172h-2l2 -995q0 -74 35.5 -113 t100.5 -39q66 0 110 47z" />
<glyph horiz-adv-x="0" />
<glyph horiz-adv-x="682" />
<glyph unicode=" "  horiz-adv-x="532" />
<glyph unicode="&#x09;" horiz-adv-x="532" />
<glyph unicode="&#xa0;" horiz-adv-x="532" />
<glyph unicode="!" horiz-adv-x="610" d="M233 449l-20 1087h182l-20 -1087h-142zM305 -20q-50 0 -85.5 35.5t-35.5 84.5t35.5 84t85.5 35q49 0 84 -34.5t35 -84.5t-35 -85t-84 -35z" />
<glyph unicode="&#x22;" horiz-adv-x="892" d="M205 954l-21 582h172l-20 -582h-131zM555 954l-18 582h170l-19 -582h-133z" />
<glyph unicode="#" horiz-adv-x="1589" d="M367 0l49 356h-289l18 136h289l70 469h-289l21 133h284l53 358h132l-50 -358h383l49 358h134l-50 -358h291l-22 -133h-287l-66 -469h287l-18 -136h-287l-53 -356h-133l51 356h-385l-49 -356h-133zM569 492h383l68 469h-385z" />
<glyph unicode="$" horiz-adv-x="1337" d="M1171 418q0 -92 -35.5 -169t-95.5 -128t-133.5 -83t-156.5 -44v-170h-160v170q-149 18 -267 100t-173 197l135 78q45 -99 148.5 -163.5t236.5 -64.5q144 0 242 73t98 196q0 76 -44 132.5t-114 92t-155 66t-169.5 66.5t-154.5 81.5t-114 122t-44 178.5q0 87 31 158.5 t84.5 119t119 76.5t140.5 39v176h160v-178q97 -17 181.5 -64.5t143.5 -113.5l-108 -92q-50 60 -128 97.5t-167 37.5q-78 0 -144 -27.5t-108.5 -85t-42.5 -135.5q0 -59 27 -106.5t73 -80t105.5 -60t125.5 -51.5t132 -50t125.5 -61t105.5 -78.5t73 -107.5t27 -144z" />
<glyph unicode="%" horiz-adv-x="1540" d="M399 903q-119 0 -201.5 96t-82.5 230q0 137 82 232t202 95q117 0 200 -95.5t83 -231.5q0 -134 -83 -230t-200 -96zM150 0l1050 1536h189l-1049 -1536h-190zM399 1044q58 0 101 54.5t43 130.5q0 78 -43 132t-101 54q-59 0 -101 -53.5t-42 -132.5q0 -76 42 -130.5 t101 -54.5zM1143 -20q-118 0 -201.5 96t-83.5 231q0 134 83.5 230t201.5 96t200 -96t82 -230q0 -136 -82 -231.5t-200 -95.5zM1141 121q59 0 100 54t41 132q0 77 -41.5 131t-99.5 54q-57 0 -99.5 -54.5t-42.5 -130.5q0 -77 42 -131.5t100 -54.5z" />
<glyph unicode="&#x26;" horiz-adv-x="1505" d="M1423 106l-116 -116l-213 211l-88 -88q-89 -88 -210.5 -119.5t-242 0t-209.5 119.5q-136 137 -135.5 330.5t135.5 328.5l90 88l-55 55q-53 53 -82 123.5t-29 143.5q0 154 110 262t265 108q156 0 266.5 -107.5t110.5 -262.5h-164q0 87 -62 149t-149 62q-89 0 -152 -63 t-63 -152q0 -83 64 -150l602 -596l211 209l114 -115l-211 -209zM891 229l88 86l-432 430l-88 -88q-91 -91 -91 -215t91 -213q91 -90 216 -90t216 90z" />
<glyph unicode="'" horiz-adv-x="540" d="M205 954l-21 582h172l-20 -582h-131z" />
<glyph unicode="(" horiz-adv-x="827" d="M694 -657q-116 8 -216 89.5t-174.5 226.5t-117.5 364t-43 485q0 267 43 487t117.5 366.5t174.5 229t216 90.5v-131q-82 -9 -152.5 -84.5t-123.5 -206t-83 -324.5t-30 -427q0 -231 30 -423.5t83 -322t123.5 -204.5t152.5 -84v-131z" />
<glyph unicode=")" horiz-adv-x="827" d="M133 -657v131q82 9 153.5 84t124 205t83 322t30.5 423q0 233 -30.5 427t-83 324.5t-124 206t-153.5 84.5v131q93 -6 176 -59t151.5 -153t118.5 -238.5t77.5 -323.5t27.5 -399t-27.5 -398t-77.5 -321t-118.5 -236t-151.5 -151.5t-176 -58.5z" />
<glyph unicode="*" horiz-adv-x="702" d="M270 1044l-86 52l109 153l-191 -16v102l191 -18l-109 156l86 51l80 -170l82 170l88 -51l-110 -156l188 18v-102l-188 16l110 -153l-88 -52l-82 170z" />
<glyph unicode="+" horiz-adv-x="1640" d="M750 0v563h-566v144h566v563h141v-563h563v-144h-563v-563h-141z" />
<glyph unicode="," horiz-adv-x="432" d="M96 -381v90q61 0 102.5 69.5t41.5 137.5q0 66 -39 66q-50 0 -84.5 34.5t-34.5 83.5q0 50 35 84.5t86 34.5q73 0 111 -63t38 -160q0 -65 -17.5 -131t-49 -121t-81.5 -90t-108 -35z" />
<glyph unicode="-" horiz-adv-x="1087" d="M184 469v127h717v-127h-717z" />
<glyph unicode="." horiz-adv-x="372" d="M186 -20q-49 0 -83.5 35t-34.5 85q0 48 34.5 83.5t83.5 35.5t85 -35.5t36 -83.5q0 -49 -35.5 -84.5t-85.5 -35.5z" />
<glyph unicode="/" horiz-adv-x="1210" d="M-37 -512l1084 2048h172l-1080 -2048h-176z" />
<glyph unicode="0" horiz-adv-x="1396" d="M698 -20q-117 0 -220 60t-176.5 164.5t-116 250.5t-42.5 313q0 223 72 403.5t199.5 282.5t283.5 102t283 -102t198.5 -282.5t71.5 -403.5q0 -222 -71.5 -402.5t-198.5 -283t-283 -102.5zM700 141q103 0 188 82t134 226t49 319t-49 319.5t-134 227t-188 82.5 q-104 0 -190 -82.5t-135 -227t-49 -319.5t49 -319t135 -226t190 -82z" />
<glyph unicode="1" horiz-adv-x="817" d="M387 0v1317l-309 -246v219l323 246h168v-1536h-182z" />
<glyph unicode="2" horiz-adv-x="1212" d="M88 0v125q473 485 555 574q173 185 217 274q31 63 31 137q0 135 -81.5 209.5t-205.5 77.5q-127 2 -210 -78.5t-83 -214.5l-176 2q-2 133 62 237t173 160t242 56q190 -2 318.5 -117.5t134.5 -306.5q5 -165 -98.5 -304.5t-507.5 -547.5q-77 -78 -119 -121h774v-162h-1026z " />
<glyph unicode="3" horiz-adv-x="1226" d="M809 864q124 -57 198 -165.5t74 -243.5q0 -198 -139 -336.5t-340 -138.5q-131 0 -241 59.5t-174 162t-64 224.5l180 2q0 -116 87.5 -197t211.5 -81q127 0 214 89.5t87 217.5q0 129 -87 217t-214 88h-121l-2 147h113h2q101 0 171.5 71.5t70.5 174.5q0 98 -70.5 166 t-171.5 68q-97 0 -165.5 -65t-68.5 -157l-174 4q0 161 118 273t290 112q169 0 287 -112t118 -273q0 -98 -51 -179.5t-139 -127.5z" />
<glyph unicode="4" horiz-adv-x="1239" d="M1116 485v-161h-160v-324h-180v324h-739v116l696 1096h223v-1051h160zM246 485h530v861z" />
<glyph unicode="5" horiz-adv-x="1265" d="M616 -20q-137 0 -259.5 57.5t-202.5 157.5l116 122q59 -80 148.5 -125t189.5 -45q151 0 252 101t101 252q0 153 -102 255.5t-253 102.5q-79 0 -154 -31.5t-130 -89.5l-154 72l86 723h795v-160h-652l-61 -461q125 109 315 109q212 0 351 -146t139 -368q0 -228 -148.5 -377 t-376.5 -149z" />
<glyph unicode="6" horiz-adv-x="1329" d="M1206 528q7 -218 -145 -376.5t-373 -169.5q-148 -5 -275.5 60t-204.5 182.5t-83 260.5q-9 199 133 367l535 684h213l-418 -516q41 8 102 8q137 -2 253.5 -69.5t186.5 -181.5t76 -249zM684 139q155 9 254 120.5t90 264.5q-9 154 -119.5 254.5t-263.5 93.5 q-101 -5 -181 -59t-122.5 -141t-36.5 -187q8 -153 117 -254t262 -92z" />
<glyph unicode="7" horiz-adv-x="1138" d="M109 0l786 1376h-817v160h1024v-121l-791 -1415h-202z" />
<glyph unicode="8" horiz-adv-x="1173" d="M817 854q121 -58 192.5 -166.5t71.5 -241.5q0 -197 -142.5 -331.5t-352.5 -134.5q-209 0 -351.5 134.5t-142.5 331.5q0 133 71 241.5t191 166.5q-81 52 -127.5 135t-46.5 182q0 162 117.5 273.5t290.5 111.5q171 0 288 -111.5t117 -273.5q0 -100 -46.5 -182.5 t-129.5 -134.5zM588 1409q-106 0 -179 -72t-73 -178t73 -179t179 -73q104 0 177 73t73 179q0 105 -72.5 177.5t-177.5 72.5zM586 141q132 0 222.5 93t90.5 225t-90.5 221.5t-222.5 89.5q-131 0 -221.5 -89.5t-90.5 -221.5t91 -225t221 -93z" />
<glyph unicode="9" horiz-adv-x="1329" d="M1206 1051q9 -197 -131 -367l-536 -684h-213l426 524q-35 -16 -111 -16q-136 3 -252.5 70.5t-187 182t-76.5 249.5q-4 108 35 206.5t109.5 170.5t168.5 117t207 50q147 5 274 -60t204 -182.5t83 -260.5zM684 666q154 6 252.5 118.5t89.5 266.5q-8 152 -117.5 253.5 t-263.5 92.5q-101 -5 -182 -58.5t-124 -140t-38 -186.5q9 -154 119.5 -254.5t263.5 -91.5z" />
<glyph unicode=":" horiz-adv-x="610" d="M305 805q-49 0 -85 35.5t-36 85.5q0 47 36 82.5t85 35.5t84 -35t35 -83q0 -50 -35 -85.5t-84 -35.5zM305 -20q-50 0 -85.5 35.5t-35.5 84.5q0 48 36 83.5t85 35.5t84 -35.5t35 -83.5q0 -50 -35 -85t-84 -35z" />
<glyph unicode=";" horiz-adv-x="624" d="M307 805q-49 0 -84 35.5t-35 85.5q0 48 35 83t84 35t85 -35.5t36 -82.5q0 -50 -36 -85.5t-85 -35.5zM203 -381v90q57 2 99 90q36 78 30 142q-3 41 -27 41q-49 0 -83 34t-34 84t34 84.5t85 34.5q111 0 135 -148.5t-47 -298.5t-192 -153z" />
<glyph unicode="&#x3c;" horiz-adv-x="1501" d="M1315 1358v-156l-985 -495l985 -498v-156l-1131 572v166z" />
<glyph unicode="=" horiz-adv-x="1476" d="M123 678v121h1229v-121h-1229zM123 287v121h1229v-121h-1229z" />
<glyph unicode="&#x3e;" horiz-adv-x="1501" d="M184 1358l1131 -567v-166l-1131 -572v156l985 498l-985 495v156z" />
<glyph unicode="?" horiz-adv-x="1146" d="M489 432v127q0 78 20.5 134t53 87.5t72 55t79.5 45t72.5 49t53 75t20.5 115.5q0 117 -81.5 191.5t-207.5 74.5q-123 0 -202.5 -77.5t-81.5 -196.5h-164q0 186 127.5 310t320.5 124q195 0 323 -121.5t128 -304.5q0 -81 -20 -143.5t-52.5 -99.5t-71.5 -65.5t-78.5 -50 t-72 -44.5t-52.5 -58t-20 -81v-146h-166zM580 -20q-48 0 -83.5 35t-35.5 85q0 47 36 83t83 36q49 0 84.5 -35.5t35.5 -83.5q0 -51 -35 -85.5t-85 -34.5z" />
<glyph unicode="@" horiz-adv-x="1241" d="M1057 305h-113v70q-37 -41 -92.5 -66.5t-108.5 -25.5q-109 0 -184.5 74.5t-75.5 183.5q0 107 75.5 181.5t184.5 74.5q55 0 111 -28t90 -71v52q0 109 -84 184.5t-205 75.5q-175 0 -296 -129.5t-121 -315.5q0 -125 62.5 -228.5t170.5 -162.5t236 -59h350v-115h-350 q-161 0 -295.5 74.5t-211.5 204.5t-77 286q0 153 70.5 281.5t193 203t268.5 74.5q169 0 285.5 -108t116.5 -266v-445zM784 381q56 0 99.5 30.5t60.5 80.5v98q-18 48 -61 78t-99 30q-72 0 -121 -45t-49 -112q0 -69 49 -114.5t121 -45.5z" />
<glyph unicode="A" horiz-adv-x="1521" d="M1278 0l-125 322h-786l-125 -322h-203l616 1536h209l617 -1536h-203zM426 479h668l-334 864z" />
<glyph unicode="B" horiz-adv-x="1320" d="M909 791q141 -35 227.5 -135.5t86.5 -247.5q0 -180 -122 -294t-302 -114h-645v1536h524q181 0 304.5 -115t123.5 -295q0 -114 -52.5 -200t-144.5 -135zM920 1110q0 107 -77 183.5t-186 76.5h-317v-524h317q109 0 186 77.5t77 186.5zM774 166q109 0 185.5 77.5t76.5 186.5 q0 106 -77 183t-185 77h-434v-524h434z" />
<glyph unicode="C" horiz-adv-x="1368" d="M854 -20q-213 0 -386 106t-268.5 286t-95.5 396t95.5 396t268.5 286t386 106q232 0 418 -143v-225q-175 190 -418 190q-167 0 -299 -81t-203 -220t-71 -309t71 -309t203 -220t299 -81q246 0 418 190v-225q-186 -143 -418 -143z" />
<glyph unicode="D" horiz-adv-x="1456" d="M154 0v1536h430q209 0 385.5 -103t279.5 -279.5t103 -385.5t-103 -385.5t-279.5 -279.5t-385.5 -103h-430zM340 166h244q159 0 293 80t211 218.5t77 303.5t-77 303.5t-211 218.5t-293 80h-244v-1204z" />
<glyph unicode="E" horiz-adv-x="1110" d="M1004 1370h-664v-518h578v-168h-578v-518h664v-166h-850v1536h850v-166z" />
<glyph unicode="F" horiz-adv-x="1081" d="M1004 1370h-664v-518h578v-168h-578v-684h-186v1536h850v-166z" />
<glyph unicode="G" horiz-adv-x="1515" d="M926 1378q-125 0 -235.5 -44t-193 -122.5t-130.5 -195t-48 -254.5q0 -184 82.5 -326t220 -216.5t304.5 -74.5q139 0 270 64v444h-356v168h522v-723q-208 -131 -438 -131q-127 0 -245 36.5t-214.5 107t-168.5 166t-111.5 220.5t-39.5 265q0 175 61.5 324.5t166.5 252 t247 160t300 57.5q234 0 442 -131v-233q-79 87 -195 136.5t-241 49.5z" />
<glyph unicode="H" horiz-adv-x="1497" d="M1157 1536h186v-1536h-186v684h-817v-684h-186v1536h186v-684h817v684z" />
<glyph unicode="I" horiz-adv-x="493" d="M154 0v1536h186v-1536h-186z" />
<glyph unicode="J" horiz-adv-x="776" d="M254 -20q-94 0 -152 20v190q74 -24 152 -24q70 0 121 51t51 121v1198h186v-1198q0 -149 -105 -253.5t-253 -104.5z" />
<glyph unicode="K" horiz-adv-x="1277" d="M1219 184v-245l-879 849v-788h-186v1536h186v-645l631 645h241l-680 -690z" />
<glyph unicode="L" horiz-adv-x="972" d="M154 0v1536h186v-1370h563v-166h-749z" />
<glyph unicode="M" horiz-adv-x="1855" d="M1505 1536h197v-1536h-184v1266l-592 -889l-586 887v-1264h-186v1536h198l576 -856z" />
<glyph unicode="N" horiz-adv-x="1593" d="M1255 1536h185v-1536h-178l-922 1235v-1235h-186v1536h178l923 -1237v1237z" />
<glyph unicode="O" horiz-adv-x="1708" d="M854 -20q-213 0 -386 106t-268.5 286t-95.5 396t95.5 396t268.5 286t386 106q160 0 300 -62t238.5 -168t155 -251t56.5 -307t-56.5 -307t-155 -251t-238.5 -168t-300 -62zM854 158q167 0 298.5 81t202 220t70.5 309t-70.5 309t-202 220t-298.5 81t-298.5 -81t-203 -220 t-71.5 -309t71.5 -309t203 -220t298.5 -81z" />
<glyph unicode="P" horiz-adv-x="1204" d="M717 1536q180 0 306 -126.5t126 -305.5q0 -180 -126 -304t-306 -124h-377v-676h-186v1536h563zM707 831q113 0 191.5 76t78.5 195q0 115 -79.5 191.5t-190.5 76.5h-367v-539h367z" />
<glyph unicode="Q" horiz-adv-x="1693" d="M1591 176h64v-176h-72q-100 0 -194 94l-56 60q-203 -174 -479 -174q-213 0 -386 106t-268.5 286t-95.5 396t95.5 396t268.5 286t386 106q160 0 300 -62t238.5 -168t155 -251t56.5 -307q0 -277 -156 -489l65 -70q33 -33 78 -33zM854 158q208 0 356 123l-247 260l118 118 l242 -251q102 155 102 360q0 170 -70.5 309t-202 220t-298.5 81t-298.5 -81t-203 -220t-71.5 -309t71.5 -309t203 -220t298.5 -81z" />
<glyph unicode="R" horiz-adv-x="1212" d="M801 696l387 -696h-209l-367 686h-272v-686h-186v1536h563q179 0 305.5 -126.5t126.5 -307.5q0 -153 -99 -267t-249 -139zM340 840h373q110 0 187 78t77 188t-77.5 187t-186.5 77h-373v-530z" />
<glyph unicode="S" horiz-adv-x="1288" d="M666 -20q-186 0 -342.5 81.5t-237.5 214.5l135 138q46 -116 169.5 -186t281.5 -70q94 0 165.5 24t116 80t45.5 139q0 42 -11.5 78.5t-27.5 63.5t-48.5 54t-58 44t-73 38.5t-76 33t-83.5 32.5q-43 16 -65 24.5t-62 25t-62 28t-56.5 30.5t-54 35.5t-44.5 39t-39.5 46.5 t-28 52.5t-19.5 61t-6 69.5q0 126 65 218t171 136.5t237 44.5q172 0 306.5 -58t214.5 -155l-125 -126q-55 82 -154.5 130t-236.5 48q-125 0 -207 -57t-82 -167q0 -37 11.5 -68.5t37.5 -58t52 -46.5t71.5 -41.5t77.5 -35t88 -34.5q184 -73 263 -121q187 -115 210 -296 q4 -28 4 -58q0 -108 -40 -191.5t-111.5 -135.5t-165 -78.5t-205.5 -26.5z" />
<glyph unicode="T" horiz-adv-x="1126" d="M1077 1536v-164h-420v-1372h-186v1372h-420v164h1026z" />
<glyph unicode="U" horiz-adv-x="1495" d="M748 -20q-161 0 -295 69.5t-211.5 190t-77.5 264.5v1032h186v-1001q0 -163 116 -276.5t282 -113.5t281.5 113.5t115.5 276.5v1001h188v-1032q0 -144 -77.5 -264.5t-212 -190t-295.5 -69.5z" />
<glyph unicode="V" horiz-adv-x="1470" d="M1245 1536h211l-616 -1536h-211l-617 1536h211l512 -1321z" />
<glyph unicode="W" horiz-adv-x="2217" d="M2038 1536h200l-647 -1536h-202l-279 659l-279 -659h-200l-651 1536h202l555 -1315l279 660l-277 655h193l551 -1315z" />
<glyph unicode="X" horiz-adv-x="1331" d="M1290 0h-215l-411 627l-410 -627h-215l522 780l-508 756h215l396 -602l397 602h215l-510 -756z" />
<glyph unicode="Y" horiz-adv-x="1337" d="M1298 1536l-534 -807v-729h-189v725l-536 811h211l420 -649l420 649h208z" />
<glyph unicode="Z" horiz-adv-x="1349" d="M348 166h907v-166h-1163v98l883 1272h-860v166h1116v-98z" />
<glyph unicode="[" horiz-adv-x="563" d="M162 -686v2396h422v-139h-265v-2118h265v-139h-422z" />
<glyph unicode="\" horiz-adv-x="1210" d="M1047 -512l-1084 2048h176l1080 -2048h-172z" />
<glyph unicode="]" horiz-adv-x="563" d="M162 -686v139h264v2118h-264v139h422v-2396h-422z" />
<glyph unicode="^" horiz-adv-x="1429" d="M1366 406h-156l-495 985l-498 -985h-156l570 1130h166z" />
<glyph unicode="_" horiz-adv-x="1394" d="M184 -125v125h1024v-125h-1024z" />
<glyph unicode="`" horiz-adv-x="102" d="M287 1219l-226 317h187l184 -317h-145z" />
<glyph unicode="a" horiz-adv-x="1099" d="M530 1044q90 0 166 -24t134 -71t91 -122.5t33 -171.5v-655h-159l-11 145q-187 -165 -378 -165q-137 0 -225.5 88.5t-88.5 224.5q0 71 27.5 129.5t87.5 103.5t154.5 58t228.5 -6l186 -31v121q0 111 -71 167t-183 56q-181 0 -274 -141l-125 110q127 184 407 184zM276 301 q0 -72 47 -116t123 -44q160 0 330 156v117l-168 28q-178 32 -255 -11t-77 -130z" />
<glyph unicode="b" horiz-adv-x="1218" d="M666 1044q106 0 195 -41.5t149 -113t93.5 -169t33.5 -208.5t-33.5 -208.5t-93.5 -169t-149 -113t-195 -41.5q-105 0 -193 44t-149 123l-9 -147h-161v1536h178v-649q131 157 334 157zM637 141q147 0 235.5 106t88.5 265q0 160 -88.5 266.5t-235.5 106.5q-109 0 -192 -73 t-113 -189v-222q30 -116 113 -188t192 -72z" />
<glyph unicode="c" horiz-adv-x="911" d="M565 -20q-147 0 -258 69.5t-168 189.5t-57 273t57 273t168 189.5t258 69.5q158 0 264 -81v-183q-45 51 -110 81t-135 30q-149 0 -236.5 -107t-87.5 -272t87.5 -272t236.5 -107q72 0 136.5 30t108.5 81v-181q-106 -83 -264 -83z" />
<glyph unicode="d" horiz-adv-x="1218" d="M889 1536h176v-1536h-162l-8 147q-132 -167 -342 -167q-106 0 -195 41.5t-149 113t-93.5 169t-33.5 208.5t33.5 208.5t93.5 169t149 113t195 41.5q102 0 188.5 -42t147.5 -117v651zM582 141q109 0 193 72.5t114 187.5v222q-30 116 -114 189t-193 73q-147 0 -234.5 -106.5 t-87.5 -266.5t87.5 -265.5t234.5 -105.5z" />
<glyph unicode="e" horiz-adv-x="1116" d="M1034 512q0 -39 -2 -59h-774q14 -145 96 -230.5t221 -85.5q94 0 158 38t125 132l127 -88q-132 -239 -416 -239q-223 0 -355 148.5t-132 381.5t132.5 383.5t354.5 150.5q216 0 340.5 -147t124.5 -385zM573 889q-130 0 -210 -79.5t-101 -215.5h608q-14 137 -91 216t-206 79 z" />
<glyph unicode="f" horiz-adv-x="753" d="M436 1243v-219h269v-141h-269v-883h-182v883h-172v141h172v229q0 127 92 215t223 88q147 0 234 -106l-103 -111q-49 66 -129 66q-59 0 -97 -46t-38 -116z" />
<glyph unicode="g" horiz-adv-x="1220" d="M903 1024h164v-1012q0 -228 -132 -376t-351 -148q-176 0 -316 96v197q140 -133 328 -133q131 0 212 99t81 265v129q-132 -161 -336 -161q-106 0 -195 41.5t-149 113t-93.5 169t-33.5 208.5q0 150 56.5 270t165 191t249.5 71q103 0 191 -45t151 -125zM582 141 q106 0 191 73.5t116 188.5v218q-31 116 -116 190t-191 74q-147 0 -234.5 -106.5t-87.5 -266.5q0 -159 87.5 -265t234.5 -106z" />
<glyph unicode="h" horiz-adv-x="1204" d="M659 1044q172 0 286 -112t114 -285v-647h-182v627q0 110 -76.5 184t-190.5 74q-115 0 -195.5 -78t-80.5 -189v-618h-180v1536h180v-641q60 70 143.5 109.5t181.5 39.5z" />
<glyph unicode="i" horiz-adv-x="559" d="M281 1214q-50 0 -85.5 34t-35.5 83q0 51 35.5 86t85.5 35q48 0 83 -35.5t35 -85.5q0 -49 -35 -83t-83 -34zM188 0v1024h181v-1024h-181z" />
<glyph unicode="j" horiz-adv-x="542" d="M305 1214q-50 0 -85.5 34t-35.5 83q0 51 35.5 86t85.5 35t84.5 -35t34.5 -86q0 -49 -34.5 -83t-84.5 -34zM82 -532q-35 0 -74 9.5t-59 22.5v158q21 -17 53 -28t59 -11q65 0 109.5 46.5t44.5 115.5v1243h180v-1253q0 -128 -90.5 -215.5t-222.5 -87.5z" />
<glyph unicode="k" horiz-adv-x="1038" d="M1014 119v-221l-680 610v-508h-180v1536h180v-911l434 399h229l-489 -451z" />
<glyph unicode="l" horiz-adv-x="669" d="M475 -20q-143 0 -228 84.5t-85 222.5v1249h180l2 -1249q0 -74 35.5 -113t99.5 -39q67 0 111 47l100 -123q-76 -79 -215 -79z" />
<glyph unicode="m" horiz-adv-x="1845" d="M1319 1044q166 0 273.5 -109t107.5 -276v-659h-182v639q0 104 -70 175t-174 71q-108 0 -182 -75t-74 -181v-629h-182v639q0 104 -70 175t-174 71q-107 0 -182.5 -75t-75.5 -181v-629h-180v1024h165l9 -125q119 145 311 145q108 0 194 -49.5t134 -136.5q58 87 150 136.5 t202 49.5z" />
<glyph unicode="n" horiz-adv-x="1204" d="M659 1044q172 0 286 -112t114 -285v-647h-182v627q0 110 -76.5 184t-190.5 74q-115 0 -195.5 -78t-80.5 -189v-618h-180v1024h165l9 -135q60 73 145.5 114t185.5 41z" />
<glyph unicode="o" horiz-adv-x="1161" d="M582 -20q-220 0 -360 153.5t-140 378.5q0 148 62 269t177 192t261 71q145 0 260 -71t177 -192t62 -269q0 -147 -62 -268t-177 -192.5t-260 -71.5zM582 141q145 0 233 106t88 265t-88.5 266t-232.5 107q-147 0 -234.5 -106.5t-87.5 -266.5t87.5 -265.5t234.5 -105.5z" />
<glyph unicode="p" horiz-adv-x="1218" d="M666 1044q106 0 195 -41.5t149 -113t93.5 -169t33.5 -208.5t-33.5 -208.5t-93.5 -169t-149 -113t-195 -41.5q-203 0 -334 157v-649h-178v1536h178v-137q131 157 334 157zM637 141q147 0 235.5 106t88.5 265q0 160 -88.5 266.5t-235.5 106.5q-109 0 -192 -73t-113 -189 v-222q30 -116 113 -188t192 -72z" />
<glyph unicode="q" horiz-adv-x="1218" d="M889 1024h176v-1536h-176v651q-61 -75 -147.5 -117t-188.5 -42q-106 0 -195 41.5t-149 113t-93.5 169t-33.5 208.5t33.5 208.5t93.5 169t149 113t195 41.5q102 0 188.5 -42t147.5 -117v139zM582 141q109 0 193 72.5t114 187.5v222q-30 116 -114 189t-193 73 q-147 0 -234.5 -106.5t-87.5 -266.5t87.5 -265.5t234.5 -105.5z" />
<glyph unicode="r" horiz-adv-x="817" d="M631 1044q80 0 129.5 -14t93.5 -47l-88 -131q-63 33 -143 33q-116 0 -202.5 -89.5t-86.5 -222.5v-573h-180v1024h165l9 -156q57 81 136.5 128.5t166.5 47.5z" />
<glyph unicode="s" horiz-adv-x="970" d="M496 -20q-124 0 -243.5 44.5t-176.5 112.5l94 123q38 -54 130 -91.5t185 -39.5q97 -3 161.5 37t64.5 110q0 22 -8 41t-18 32.5t-32 27.5t-37.5 22.5t-48.5 20t-50 16.5t-56 17q-42 13 -60 19t-57 20t-58 25t-49.5 29t-46 36.5t-32.5 43t-24 54.5t-7 65q0 132 111.5 215.5 t265.5 83.5q97 0 194.5 -32t159.5 -82l-100 -123q-41 38 -101.5 62.5t-121.5 29.5q-85 7 -154.5 -29t-69.5 -102q0 -25 8 -46t27 -38t37 -29t51 -24.5t55 -19.5t62 -19q46 -13 70 -20.5t66.5 -23t66 -29.5t54 -37.5t46.5 -49.5t27.5 -62t11.5 -79q0 -135 -113.5 -223 t-283.5 -88z" />
<glyph unicode="t" horiz-adv-x="714" d="M608 182l101 -123q-76 -79 -215 -79q-142 0 -228 85t-86 222v596h-133v141h133v348h180v-348h279v-141h-277v-596q0 -74 36 -113t100 -39q66 0 110 47z" />
<glyph unicode="u" d="M881 1024h182v-1024h-166l-10 137q-58 -73 -143 -115t-183 -42q-170 0 -286.5 119t-116.5 288v637h180v-618q0 -110 78 -187.5t190 -77.5q114 0 194.5 77.5t80.5 187.5v618z" />
<glyph unicode="v" horiz-adv-x="1026" d="M817 1024h193l-410 -1024h-174l-410 1024h193l305 -811z" />
<glyph unicode="w" horiz-adv-x="1468" d="M1249 1024h201l-350 -1024h-199l-170 487l-164 -487h-196l-353 1024h205l256 -807l168 506l-104 301h178l268 -811z" />
<glyph unicode="x" horiz-adv-x="1048" d="M1061 1024l-428 -512l428 -512h-221l-316 379l-315 -379h-221l426 512l-426 512h217l319 -381l318 381h219z" />
<glyph unicode="y" d="M1063 1024v-1051q0 -143 -53.5 -253.5t-167 -177t-273.5 -66.5q-205 0 -356 98v197q153 -133 371 -133q149 0 223 88t74 247v158q-58 -71 -141 -111t-179 -40q-170 0 -286.5 119t-116.5 288v637h180v-618q0 -110 78 -187.5t190 -77.5q114 0 194.5 77.5t80.5 187.5v618 h182z" />
<glyph unicode="z" horiz-adv-x="1081" d="M98 0v127l631 745h-618v152h858v-123l-631 -749h645v-152h-885z" />
<glyph unicode="{" horiz-adv-x="675" d="M471 -662q-92 0 -153.5 80t-61.5 199v496q0 154 -28 222.5t-126 113.5v122q99 48 126.5 116t27.5 220v488q0 119 61.5 198.5t153.5 79.5h96v-127q-97 0 -132.5 -33t-35.5 -131v-505q0 -131 -27.5 -218t-111.5 -149q84 -62 111.5 -148.5t27.5 -218.5v-514q0 -84 36 -118.5 t132 -34.5v-138h-96z" />
<glyph unicode="|" horiz-adv-x="595" d="M238 -307v1843h118v-1843h-118z" />
<glyph unicode="}" horiz-adv-x="675" d="M109 -662v138q96 0 131.5 34.5t35.5 118.5v514q0 131 27.5 218t110.5 149q-82 62 -110 149.5t-28 217.5v505q0 98 -35 131t-132 33v135h96q92 0 152.5 -80t60.5 -198v-496q0 -78 4.5 -123.5t20.5 -88t46.5 -71t81.5 -53.5v-122q-97 -45 -125 -113t-28 -223v-496 q0 -119 -60.5 -199t-152.5 -80h-96z" />
<glyph unicode="~" horiz-adv-x="1150" d="M795 367q-38 0 -73 10.5t-59.5 23.5t-52.5 37.5t-41.5 39t-36.5 40.5q-47 54 -84 79.5t-86 25.5q-82 0 -132.5 -67t-45.5 -165h-100q-9 145 71 238.5t207 93.5q78 0 136.5 -38t117.5 -112q42 -53 80 -80.5t90 -27.5q81 0 133 64.5t46 166.5h100q12 -140 -67 -234.5 t-203 -94.5z" />
<glyph unicode="&#xa1;" horiz-adv-x="610" d="M305 784q-50 0 -85.5 35t-35.5 86q0 48 36 83.5t85 35.5t84 -35.5t35 -83.5q0 -51 -34.5 -86t-84.5 -35zM213 -512l20 1087h142l20 -1087h-182z" />
<glyph unicode="&#xa2;" horiz-adv-x="1075" d="M657 1090q-155 0 -263.5 -109t-108.5 -264t108.5 -263t263.5 -108q171 0 273 96v-180q-110 -72 -250 -78v-186h-115v192q-198 33 -329.5 181t-131.5 346t131.5 345.5t329.5 180.5v193h115v-187q137 -6 250 -75v-183q-105 99 -273 99z" />
<glyph unicode="&#xa3;" horiz-adv-x="1247" d="M379 131h778v-131h-919v690h-164v125h164v270q0 207 128.5 339t329.5 132q146 0 269 -91t163 -230l-135 -59q-20 102 -106 169.5t-191 67.5q-143 0 -230 -89.5t-87 -238.5v-270h381v-125h-381v-559z" />
<glyph unicode="&#xa4;" horiz-adv-x="1239" d="M250 272l-98 105l104 102q-89 117 -88.5 264.5t88.5 264.5l-102 100l98 104l104 -106q117 89 264.5 90t264.5 -88l104 104l101 -100l-105 -102q89 -118 89 -266t-89 -267l105 -100l-99 -105l-106 107q-117 -89 -265.5 -89t-265.5 89zM397 522q94 -93 223 -93t222 93 q91 92 91 222t-91 221q-92 91 -221.5 90.5t-221.5 -92.5q-91 -91 -92 -220.5t90 -220.5z" />
<glyph unicode="&#xa5;" horiz-adv-x="1380" d="M770 741v-16h414v-121h-414v-196h414v-113h-414v-295h-160v295h-409v113h409v196h-409v121h409v16l-528 795h174l432 -668l436 668h172z" />
<glyph unicode="&#xa6;" horiz-adv-x="595" d="M238 799v737h118v-737h-118zM238 -307v737h118v-737h-118z" />
<glyph unicode="&#xa7;" horiz-adv-x="1267" d="M1059 508q80 -73 80 -182q0 -95 -69.5 -170t-182 -113.5t-244.5 -38.5q-173 0 -313 67t-197 169l117 67q40 -77 146 -126.5t253 -49.5t249.5 52.5t102.5 144.5q0 44 -27.5 78t-73.5 57.5t-106 43t-126 37.5t-132 37.5t-126 46.5t-106 60.5t-73.5 84.5t-27.5 114 q0 108 82 184q-80 73 -80 178q0 73 37 133t99 97t139 57t161 20q123 0 233 -40t177 -107l-95 -78q-53 49 -133.5 78t-173.5 29q-126 0 -216.5 -49t-90.5 -134q0 -49 34.5 -86.5t90.5 -61t128 -46.5t146.5 -41.5t146.5 -47.5t128 -63t90.5 -90t34.5 -127q0 -102 -82 -184z M342 891q0 -53 38.5 -93t107.5 -66.5t142 -47t164.5 -48.5t151.5 -56q55 49 55 114q0 52 -38.5 91t-107.5 65.5t-142 46.5t-164.5 47t-151.5 55q-55 -43 -55 -108z" />
<glyph unicode="&#xa8;" horiz-adv-x="102" d="M248 1214q-50 0 -85.5 34t-35.5 83q0 51 35.5 86t85.5 35t84.5 -35t34.5 -86q0 -49 -34.5 -83t-84.5 -34zM631 1214q-48 0 -83.5 34t-35.5 83q0 50 35.5 85.5t83.5 35.5q50 0 84.5 -35t34.5 -86q0 -49 -34.5 -83t-84.5 -34z" />
<glyph unicode="&#xa9;" horiz-adv-x="1785" d="M893 -20q-128 0 -248.5 40t-217.5 113t-170 170t-113 217t-40 248t40 248t113 217t170 170t217.5 113t248.5 40q160 0 306 -62.5t251.5 -168t168 -251.5t62.5 -306t-62.5 -306t-168 -251.5t-251.5 -168t-306 -62.5zM893 86q187 0 344.5 91t248.5 247.5t91 343.5 q0 188 -91 345t-248 248t-345 91q-187 0 -343.5 -91t-247.5 -248.5t-91 -344.5q0 -186 91 -343t248 -248t343 -91zM920 356q-173 0 -295.5 118.5t-122.5 285.5q0 170 122 288.5t296 118.5q120 0 217 -63v-119l-9 -4q-87 74 -202 74q-127 0 -214 -82.5t-87 -212.5 q0 -127 87.5 -210t213.5 -83q54 0 108 19t92 51h11v-117q-95 -64 -217 -64z" />
<glyph unicode="&#xaa;" horiz-adv-x="837" d="M629 1536h96v-614h-96v131q-39 -66 -105.5 -105t-146.5 -39q-129 0 -220 93.5t-91 226.5q0 132 91 225.5t220 93.5q80 0 146.5 -39t105.5 -106v133zM393 993q98 0 167 69.5t69 166.5q0 96 -69 164.5t-167 68.5q-96 0 -163.5 -68.5t-67.5 -164.5q0 -97 67.5 -166.5 t163.5 -69.5z" />
<glyph unicode="&#xab;" horiz-adv-x="1306" d="M539 195l-312 376l312 377h153l-311 -377l311 -376h-153zM926 195l-312 376l312 377h155l-311 -377l311 -376h-155z" />
<glyph unicode="&#xac;" horiz-adv-x="1603" d="M1296 240v524h-1112v121h1233v-645h-121z" />
<glyph unicode="&#xad;" horiz-adv-x="1218" d="M184 469v127h717v-127h-717z" />
<glyph unicode="&#xae;" horiz-adv-x="1785" d="M893 1556q160 0 306 -62.5t251.5 -168t168 -251.5t62.5 -306t-62.5 -306t-168 -251.5t-251.5 -168t-306 -62.5q-128 0 -248.5 40t-217.5 113t-170 170t-113 217t-40 248t40 248t113 217t170 170t217.5 113t248.5 40zM893 86q187 0 344.5 91t248.5 247.5t91 343.5 q0 188 -91 345t-248 248t-345 91q-187 0 -343.5 -91t-247.5 -248.5t-91 -344.5q0 -186 91 -343t248 -248t343 -91zM1176 940q0 -76 -44 -135.5t-114 -83.5l192 -352h-108l-191 342h-131v-342h-96v798h260q97 0 164.5 -66t67.5 -161zM780 1069v-262h164q56 0 94.5 38.5 t38.5 94.5q0 54 -38.5 91.5t-94.5 37.5h-164z" />
<glyph unicode="&#xaf;" horiz-adv-x="124" d="M61 1231v121h635v-121h-635z" />
<glyph unicode="&#xb0;" horiz-adv-x="1001" d="M500 1008q-113 0 -194 80t-81 194t81 194t194 80q114 0 194 -80t80 -194t-80 -194t-194 -80zM500 1104q75 0 126.5 51.5t51.5 126.5t-51.5 126.5t-126.5 51.5q-74 0 -126 -51.5t-52 -126.5t52 -126.5t126 -51.5z" />
<glyph unicode="&#xb1;" horiz-adv-x="1617" d="M870 879h646v-121h-646v-369h-120v369h-648v121h648v368h120v-368zM102 0v113h1414v-113h-1414z" />
<glyph unicode="&#xb2;" horiz-adv-x="698" d="M88 778v68q271 279 319 335q66 76 74 123q2 12 2 27q0 66 -39.5 103t-99.5 39q-63 0 -103 -39t-40 -105h-92q-1 101 68 164t171 63q95 0 159.5 -57t67.5 -151q3 -86 -51 -158.5t-269 -290.5q-23 -24 -36 -37h381v-84h-512z" />
<glyph unicode="&#xb3;" horiz-adv-x="749" d="M471 1210q61 -28 97 -81t36 -121q0 -100 -69 -170t-170 -70q-100 0 -171 65t-71 158l94 2q0 -56 43.5 -95.5t104.5 -39.5t103 44t42 106q0 63 -42 106t-103 43h-62v78h55q51 0 84 34t33 87q0 47 -33 78.5t-84 31.5q-46 0 -79 -30.5t-33 -73.5l-92 2q0 81 59.5 136.5 t144.5 55.5t145 -55.5t60 -136.5q0 -48 -25 -88.5t-67 -65.5z" />
<glyph unicode="&#xb4;" horiz-adv-x="102" d="M61 1219l185 317h186l-223 -317h-148z" />
<glyph unicode="&#xb5;" horiz-adv-x="1218" d="M889 1024h180v-1024h-180v147q-58 -78 -142.5 -122.5t-181.5 -44.5q-150 0 -262 98v-590h-139v1536h182v-618q0 -110 78 -187.5t188 -77.5q115 0 196 77.5t81 187.5v618z" />
<glyph unicode="&#xb6;" horiz-adv-x="1271" d="M633 -307v1157h-64q-171 0 -267.5 89.5t-96.5 254.5t96.5 253.5t267.5 88.5h164v-1843h-100zM924 -307v1843h102v-1843h-102z" />
<glyph unicode="&#xb7;" horiz-adv-x="561" d="M281 643q-39 0 -68 27t-29 67q0 38 29.5 67.5t67.5 29.5t67 -29.5t29 -67.5q0 -40 -28.5 -67t-67.5 -27z" />
<glyph unicode="&#xb8;" horiz-adv-x="102" d="M299 -532q-69 0 -138 37.5t-100 91.5l86 36q23 -31 67 -52t85 -21q49 0 82 33t33 83q0 72 -59.5 100t-145.5 -5l-74 49l90 180h94l-67 -137q107 22 181.5 -33t74.5 -154q0 -86 -61 -147t-148 -61z" />
<glyph unicode="&#xb9;" horiz-adv-x="536" d="M193 768v684h-115v84h211v-768h-96z" />
<glyph unicode="&#xba;" horiz-adv-x="788" d="M393 909q-136 0 -231.5 93t-95.5 227q0 132 95.5 225.5t231.5 93.5q138 0 235 -93.5t97 -225.5q0 -133 -97 -226.5t-235 -93.5zM393 993q98 0 167 69.5t69 166.5q0 96 -69 164.5t-167 68.5q-96 0 -163.5 -68.5t-67.5 -164.5q0 -97 67.5 -166.5t163.5 -69.5z" />
<glyph unicode="&#xbb;" horiz-adv-x="1306" d="M225 195l312 376l-312 377h154l311 -377l-311 -376h-154zM612 195l312 376l-312 377h156l311 -377l-311 -376h-156z" />
<glyph unicode="&#xbf;" horiz-adv-x="1138" d="M561 1059q50 0 85.5 -35t35.5 -84q0 -50 -36 -85.5t-85 -35.5t-84 35.5t-35 85.5t35 84.5t84 34.5zM651 606v-125q0 -78 -20.5 -134.5t-53 -88.5t-72 -55.5t-79 -45t-72 -49t-53 -75t-20.5 -115.5q0 -117 81.5 -191.5t206.5 -74.5q123 0 203.5 77.5t83.5 196.5h162 q1 -186 -127 -310t-322 -124q-193 0 -320.5 121.5t-127.5 304.5q0 81 20 143.5t52 99.5t71 65.5t78 50.5t71 45.5t52 58.5t20 82v143h166z" />
<glyph unicode="&#xc0;" horiz-adv-x="1521" d="M825 1731h-145l-225 317h186zM1278 0l-125 322h-786l-125 -322h-203l616 1536h209l617 -1536h-203zM426 479h668l-334 864z" />
<glyph unicode="&#xc1;" horiz-adv-x="1521" d="M1061 2048l-223 -317h-148l184 317h187zM1278 0l-125 322h-786l-125 -322h-203l616 1536h209l617 -1536h-203zM426 479h668l-334 864z" />
<glyph unicode="&#xc2;" horiz-adv-x="1521" d="M760 1960l-158 -262h-147l209 350h192l209 -350h-147zM1278 0l-125 322h-786l-125 -322h-203l616 1536h209l617 -1536h-203zM426 479h668l-334 864z" />
<glyph unicode="&#xc3;" horiz-adv-x="1521" d="M539 1731h-115q-17 115 39 189.5t153 74.5q118 0 191 -113q36 -59 92 -59q48 0 71 42.5t11 110.5h115q17 -113 -38.5 -188.5t-154.5 -75.5q-116 0 -190 111q-39 59 -92 59q-48 0 -71 -42t-11 -109zM1278 0l-125 322h-786l-125 -322h-203l616 1536h209l617 -1536h-203z M426 479h668l-334 864z" />
<glyph unicode="&#xc4;" horiz-adv-x="1521" d="M569 1726q-50 0 -85 34t-35 83q0 51 35 86t85 35t84.5 -35t34.5 -86q0 -49 -34.5 -83t-84.5 -34zM952 1726q-48 0 -83 34t-35 83q0 50 35 85.5t83 35.5q50 0 84.5 -35t34.5 -86q0 -49 -34.5 -83t-84.5 -34zM1278 0l-125 322h-786l-125 -322h-203l616 1536h209l617 -1536 h-203zM426 479h668l-334 864z" />
<glyph unicode="&#xc5;" horiz-adv-x="1521" d="M1278 0l-125 322h-786l-125 -322h-203l600 1497q-88 65 -88 168q0 86 62.5 148.5t148.5 62.5t147.5 -62.5t61.5 -148.5q0 -52 -24 -97t-66 -73l600 -1495h-203zM762 1794q-52 0 -87.5 -38t-35.5 -91q0 -54 35 -89.5t88 -35.5t89 35.5t36 89.5q0 53 -36.5 91t-88.5 38z M426 479h668l-334 864z" />
<glyph unicode="&#xc6;" horiz-adv-x="1832" d="M39 0l616 1536h1074v-160h-668v-534h581v-146h-581v-534h668v-162h-850v336h-506l-125 -336h-209zM436 481h445v895h-95z" />
<glyph unicode="&#xc7;" horiz-adv-x="1368" d="M854 1378q-167 0 -299 -81t-203 -220t-71 -309t71 -309t203 -220t299 -81q246 0 418 190v-225q-171 -132 -381 -141l-57 -119q107 22 181.5 -33t74.5 -154q0 -86 -61 -147t-148 -61q-69 0 -138 37.5t-100 91.5l86 36q23 -31 67 -52t85 -21q49 0 81.5 33t32.5 83 q0 72 -59 100t-145 -5l-74 49l80 162q-199 14 -358 122t-247 282.5t-88 381.5q0 216 95.5 396t268.5 286t386 106q232 0 418 -143v-225q-175 190 -418 190z" />
<glyph unicode="&#xc8;" horiz-adv-x="1110" d="M643 1731h-145l-226 317h187zM1004 1370h-664v-518h578v-168h-578v-518h664v-166h-850v1536h850v-166z" />
<glyph unicode="&#xc9;" horiz-adv-x="1110" d="M879 2048l-224 -317h-147l184 317h187zM1004 1370h-664v-518h578v-168h-578v-518h664v-166h-850v1536h850v-166z" />
<glyph unicode="&#xca;" horiz-adv-x="1110" d="M578 1960l-158 -262h-148l209 350h193l209 -350h-148zM1004 1370h-664v-518h578v-168h-578v-518h664v-166h-850v1536h850v-166z" />
<glyph unicode="&#xcb;" horiz-adv-x="1110" d="M387 1726q-50 0 -85.5 34t-35.5 83q0 51 35.5 86t85.5 35t84.5 -35t34.5 -86q0 -49 -34.5 -83t-84.5 -34zM770 1726q-48 0 -83.5 34t-35.5 83q0 50 35.5 85.5t83.5 35.5q50 0 84.5 -35t34.5 -86q0 -49 -34.5 -83t-84.5 -34zM1004 1370h-664v-518h578v-168h-578v-518h664 v-166h-850v1536h850v-166z" />
<glyph unicode="&#xcc;" horiz-adv-x="493" d="M166 1731l-225 317h186l184 -317h-145zM154 0v1536h186v-1536h-186z" />
<glyph unicode="&#xcd;" horiz-adv-x="493" d="M176 1731l184 317h187l-223 -317h-148zM154 0v1536h186v-1536h-186z" />
<glyph unicode="&#xce;" horiz-adv-x="493" d="M-59 1698l209 350h192l209 -350h-148l-157 262l-158 -262h-147zM154 0v1536h186v-1536h-186z" />
<glyph unicode="&#xcf;" horiz-adv-x="493" d="M55 1726q-50 0 -85.5 34t-35.5 83q0 51 35.5 86t85.5 35t84.5 -35t34.5 -86q0 -49 -34.5 -83t-84.5 -34zM438 1726q-48 0 -83.5 34t-35.5 83q0 50 35.5 85.5t83.5 35.5q50 0 84.5 -35t34.5 -86q0 -49 -34.5 -83t-84.5 -34zM154 0v1536h186v-1536h-186z" />
<glyph unicode="&#xd0;" horiz-adv-x="1456" d="M584 1536q209 0 385.5 -103t279.5 -279.5t103 -385.5t-103 -385.5t-279.5 -279.5t-385.5 -103h-430v705h-158v129h158v702h430zM584 166q159 0 293 80t211 218.5t77 303.5t-77 303.5t-211 218.5t-293 80h-244v-536h268v-129h-268v-539h244z" />
<glyph unicode="&#xd1;" horiz-adv-x="1593" d="M573 1731h-114q-17 115 39 189.5t153 74.5q118 0 191 -113q36 -59 92 -59q48 0 71 42.5t11 110.5h114q17 -113 -38 -188.5t-154 -75.5q-116 0 -190 111q-39 59 -93 59q-48 0 -71 -42t-11 -109zM1255 1536h185v-1536h-178l-922 1235v-1235h-186v1536h178l923 -1237v1237z " />
<glyph unicode="&#xd2;" horiz-adv-x="1708" d="M774 1731l-225 317h186l185 -317h-146zM854 -20q-213 0 -386 106t-268.5 286t-95.5 396t95.5 396t268.5 286t386 106q160 0 300 -62t238.5 -168t155 -251t56.5 -307t-56.5 -307t-155 -251t-238.5 -168t-300 -62zM854 158q167 0 298.5 81t202 220t70.5 309t-70.5 309 t-202 220t-298.5 81t-298.5 -81t-203 -220t-71.5 -309t71.5 -309t203 -220t298.5 -81z" />
<glyph unicode="&#xd3;" horiz-adv-x="1708" d="M784 1731l185 317h186l-223 -317h-148zM854 -20q-213 0 -386 106t-268.5 286t-95.5 396t95.5 396t268.5 286t386 106q160 0 300 -62t238.5 -168t155 -251t56.5 -307t-56.5 -307t-155 -251t-238.5 -168t-300 -62zM854 158q167 0 298.5 81t202 220t70.5 309t-70.5 309 t-202 220t-298.5 81t-298.5 -81t-203 -220t-71.5 -309t71.5 -309t203 -220t298.5 -81z" />
<glyph unicode="&#xd4;" horiz-adv-x="1708" d="M549 1698l209 350h192l209 -350h-147l-158 262l-158 -262h-147zM854 -20q-213 0 -386 106t-268.5 286t-95.5 396t95.5 396t268.5 286t386 106q160 0 300 -62t238.5 -168t155 -251t56.5 -307t-56.5 -307t-155 -251t-238.5 -168t-300 -62zM854 158q167 0 298.5 81t202 220 t70.5 309t-70.5 309t-202 220t-298.5 81t-298.5 -81t-203 -220t-71.5 -309t71.5 -309t203 -220t298.5 -81z" />
<glyph unicode="&#xd5;" horiz-adv-x="1708" d="M997 1712q-116 0 -190 111q-39 59 -92 59q-48 0 -71 -42t-11 -109h-115q-17 115 39.5 189.5t153.5 74.5q117 0 190 -113q36 -59 92 -59q48 0 71 42.5t11 110.5h115q17 -113 -38.5 -188.5t-154.5 -75.5zM854 -20q-213 0 -386 106t-268.5 286t-95.5 396t95.5 396t268.5 286 t386 106q160 0 300 -62t238.5 -168t155 -251t56.5 -307t-56.5 -307t-155 -251t-238.5 -168t-300 -62zM854 158q167 0 298.5 81t202 220t70.5 309t-70.5 309t-202 220t-298.5 81t-298.5 -81t-203 -220t-71.5 -309t71.5 -309t203 -220t298.5 -81z" />
<glyph unicode="&#xd6;" horiz-adv-x="1708" d="M664 1726q-50 0 -85.5 34t-35.5 83q0 51 35.5 86t85.5 35t84 -35t34 -86q0 -49 -34 -83t-84 -34zM1047 1726q-48 0 -83.5 34t-35.5 83q0 50 35.5 85.5t83.5 35.5q50 0 84 -35t34 -86q0 -49 -34 -83t-84 -34zM854 -20q-213 0 -386 106t-268.5 286t-95.5 396t95.5 396 t268.5 286t386 106q160 0 300 -62t238.5 -168t155 -251t56.5 -307t-56.5 -307t-155 -251t-238.5 -168t-300 -62zM854 158q167 0 298.5 81t202 220t70.5 309t-70.5 309t-202 220t-298.5 81t-298.5 -81t-203 -220t-71.5 -309t71.5 -309t203 -220t298.5 -81z" />
<glyph unicode="&#xd7;" horiz-adv-x="1507" d="M1282 1034l-401 -399l401 -399l-100 -99l-400 400l-399 -400l-100 99l399 399l-399 399l100 99l399 -400l400 400z" />
<glyph unicode="&#xd8;" horiz-adv-x="1708" d="M1333 1382q128 -110 199.5 -270t71.5 -344q0 -162 -56.5 -307t-155 -251t-238.5 -168t-300 -62q-218 0 -389 108l-80 -119h-131l123 183q-129 110 -201 270.5t-72 345.5q0 216 95.5 396t268.5 286t386 106q217 0 391 -110l80 119h131zM281 768q0 -142 50.5 -263.5 t143.5 -205.5l672 1001q-131 78 -293 78q-167 0 -298.5 -81t-203 -220t-71.5 -309zM854 158q167 0 298.5 81t202 220t70.5 309q0 141 -49.5 262.5t-140.5 204.5l-672 -1002q126 -75 291 -75z" />
<glyph unicode="&#xd9;" horiz-adv-x="1495" d="M668 1731l-226 317h187l184 -317h-145zM748 -20q-161 0 -295 69.5t-211.5 190t-77.5 264.5v1032h186v-1001q0 -163 116 -276.5t282 -113.5t281.5 113.5t115.5 276.5v1001h188v-1032q0 -144 -77.5 -264.5t-212 -190t-295.5 -69.5z" />
<glyph unicode="&#xda;" horiz-adv-x="1495" d="M678 1731l184 317h187l-224 -317h-147zM748 -20q-161 0 -295 69.5t-211.5 190t-77.5 264.5v1032h186v-1001q0 -163 116 -276.5t282 -113.5t281.5 113.5t115.5 276.5v1001h188v-1032q0 -144 -77.5 -264.5t-212 -190t-295.5 -69.5z" />
<glyph unicode="&#xdb;" horiz-adv-x="1495" d="M442 1698l209 350h193l209 -350h-148l-157 262l-158 -262h-148zM748 -20q-161 0 -295 69.5t-211.5 190t-77.5 264.5v1032h186v-1001q0 -163 116 -276.5t282 -113.5t281.5 113.5t115.5 276.5v1001h188v-1032q0 -144 -77.5 -264.5t-212 -190t-295.5 -69.5z" />
<glyph unicode="&#xdc;" horiz-adv-x="1495" d="M557 1726q-50 0 -85.5 34t-35.5 83q0 51 35.5 86t85.5 35t84.5 -35t34.5 -86q0 -49 -34.5 -83t-84.5 -34zM940 1726q-48 0 -83.5 34t-35.5 83q0 50 35.5 85.5t83.5 35.5q50 0 84.5 -35t34.5 -86q0 -49 -34.5 -83t-84.5 -34zM748 -20q-161 0 -295 69.5t-211.5 190 t-77.5 264.5v1032h186v-1001q0 -163 116 -276.5t282 -113.5t281.5 113.5t115.5 276.5v1001h188v-1032q0 -144 -77.5 -264.5t-212 -190t-295.5 -69.5z" />
<glyph unicode="&#xdd;" horiz-adv-x="1337" d="M971 2048l-223 -317h-148l184 317h187zM1298 1536l-534 -807v-729h-189v725l-536 811h211l420 -649l420 649h208z" />
<glyph unicode="&#xde;" horiz-adv-x="1208" d="M713 1323q180 0 305 -126t125 -308q0 -178 -125 -302t-305 -124h-379v-463h-180v1323v207h180v-207h379zM707 623q114 0 193 78.5t79 191.5q0 111 -79 188.5t-193 77.5h-373v-536h373z" />
<glyph unicode="&#xdf;" horiz-adv-x="1376" d="M987 786q111 -55 177.5 -157.5t66.5 -227.5q0 -176 -117.5 -298.5t-284.5 -122.5q-89 0 -184.5 34t-152.5 90l77 138q39 -39 102.5 -67t125.5 -28q102 3 177 79t75 184q0 116 -83.5 197t-201.5 81h-115v152h49q114 0 194.5 79.5t80.5 194.5q0 114 -83 188t-212 74 q-134 0 -222.5 -80.5t-88.5 -201.5v-1094h-183v1094q0 191 141 316.5t351 125.5q203 0 335 -119t132 -301q0 -99 -41.5 -184.5t-114.5 -145.5z" />
<glyph unicode="&#xe0;" horiz-adv-x="1099" d="M621 1219h-146l-225 317h186zM530 1044q90 0 166 -24t134 -71t91 -122.5t33 -171.5v-655h-159l-11 145q-187 -165 -378 -165q-137 0 -225.5 88.5t-88.5 224.5q0 71 27.5 129.5t87.5 103.5t154.5 58t228.5 -6l186 -31v121q0 111 -71 167t-183 56q-181 0 -274 -141 l-125 110q127 184 407 184zM276 301q0 -72 47 -116t123 -44q160 0 330 156v117l-168 28q-178 32 -255 -11t-77 -130z" />
<glyph unicode="&#xe1;" horiz-adv-x="1099" d="M856 1536l-223 -317h-148l185 317h186zM530 1044q90 0 166 -24t134 -71t91 -122.5t33 -171.5v-655h-159l-11 145q-187 -165 -378 -165q-137 0 -225.5 88.5t-88.5 224.5q0 71 27.5 129.5t87.5 103.5t154.5 58t228.5 -6l186 -31v121q0 111 -71 167t-183 56 q-181 0 -274 -141l-125 110q127 184 407 184zM276 301q0 -72 47 -116t123 -44q160 0 330 156v117l-168 28q-178 32 -255 -11t-77 -130z" />
<glyph unicode="&#xe2;" horiz-adv-x="1099" d="M555 1448l-158 -262h-147l209 350h192l209 -350h-147zM530 1044q90 0 166 -24t134 -71t91 -122.5t33 -171.5v-655h-159l-11 145q-187 -165 -378 -165q-137 0 -225.5 88.5t-88.5 224.5q0 71 27.5 129.5t87.5 103.5t154.5 58t228.5 -6l186 -31v121q0 111 -71 167t-183 56 q-181 0 -274 -141l-125 110q127 184 407 184zM276 301q0 -72 47 -116t123 -44q160 0 330 156v117l-168 28q-178 32 -255 -11t-77 -130z" />
<glyph unicode="&#xe3;" horiz-adv-x="1099" d="M334 1219h-115q-17 115 39.5 189.5t153.5 74.5q117 0 190 -113q36 -59 92 -59q48 0 71 42.5t11 110.5h115q17 -113 -38.5 -188.5t-154.5 -75.5q-116 0 -190 111q-39 59 -92 59q-48 0 -71 -42t-11 -109zM530 1044q90 0 166 -24t134 -71t91 -122.5t33 -171.5v-655h-159 l-11 145q-187 -165 -378 -165q-137 0 -225.5 88.5t-88.5 224.5q0 71 27.5 129.5t87.5 103.5t154.5 58t228.5 -6l186 -31v121q0 111 -71 167t-183 56q-181 0 -274 -141l-125 110q127 184 407 184zM276 301q0 -72 47 -116t123 -44q160 0 330 156v117l-168 28q-178 32 -255 -11 t-77 -130z" />
<glyph unicode="&#xe4;" horiz-adv-x="1099" d="M365 1214q-50 0 -85.5 34t-35.5 83q0 51 35.5 86t85.5 35t84 -35t34 -86q0 -49 -34 -83t-84 -34zM748 1214q-48 0 -83.5 34t-35.5 83q0 50 35.5 85.5t83.5 35.5q50 0 84 -35t34 -86q0 -49 -34 -83t-84 -34zM530 1044q90 0 166 -24t134 -71t91 -122.5t33 -171.5v-655h-159 l-11 145q-187 -165 -378 -165q-137 0 -225.5 88.5t-88.5 224.5q0 71 27.5 129.5t87.5 103.5t154.5 58t228.5 -6l186 -31v121q0 111 -71 167t-183 56q-181 0 -274 -141l-125 110q127 184 407 184zM276 301q0 -72 47 -116t123 -44q160 0 330 156v117l-168 28q-178 32 -255 -11 t-77 -130z" />
<glyph unicode="&#xe5;" horiz-adv-x="1099" d="M557 1145q-88 0 -149.5 61.5t-61.5 147.5t61.5 147.5t149.5 61.5q86 0 146.5 -61.5t60.5 -147.5t-60.5 -147.5t-146.5 -61.5zM557 1481q-52 0 -88.5 -37t-36.5 -90q0 -55 36 -91t89 -36t88 36t35 91q0 53 -35.5 90t-87.5 37zM530 1044q90 0 166 -24t134 -71t91 -122.5 t33 -171.5v-655h-159l-11 145q-187 -165 -378 -165q-137 0 -225.5 88.5t-88.5 224.5q0 71 27.5 129.5t87.5 103.5t154.5 58t228.5 -6l186 -31v121q0 111 -71 167t-183 56q-181 0 -274 -141l-125 110q127 184 407 184zM276 301q0 -72 47 -116t123 -44q160 0 330 156v117 l-168 28q-178 32 -255 -11t-77 -130z" />
<glyph unicode="&#xe6;" horiz-adv-x="1767" d="M1686 512q0 -29 -3 -59h-774q14 -146 96.5 -231t221.5 -85q93 0 157 38t125 132l127 -88q-132 -239 -415 -239q-133 0 -236 55t-166 155q-95 -98 -204.5 -154t-219.5 -56q-137 0 -225 88t-88 225q0 71 27.5 129.5t87.5 103.5t154.5 58t228.5 -6l155 -25q3 74 27 156 q-13 91 -81.5 136.5t-168.5 45.5q-181 0 -274 -141l-125 110q127 184 407 184q269 0 350 -147q134 147 351 147q216 0 340.5 -147t124.5 -385zM1225 889q-131 0 -211 -79t-101 -216h609q-15 137 -92 216t-205 79zM436 141q163 0 330 160q-18 55 -27 117l-141 24 q-178 32 -255 -11t-77 -130q0 -72 47 -116t123 -44z" />
<glyph unicode="&#xe7;" horiz-adv-x="911" d="M584 891q-149 0 -236.5 -107t-87.5 -272t87.5 -272t236.5 -107q72 0 136.5 30t108.5 81v-181q-93 -75 -239 -83l-58 -117q107 22 181.5 -33t74.5 -154q0 -87 -60.5 -147.5t-147.5 -60.5q-69 0 -138 37.5t-100 91.5l86 36q23 -31 67 -52t85 -21q49 0 81.5 33t32.5 83 q0 72 -59.5 100t-145.5 -5l-73 49l82 164q-193 23 -304.5 168t-111.5 360q0 153 57 273t168 189.5t258 69.5q158 0 264 -81v-183q-45 51 -110 81t-135 30z" />
<glyph unicode="&#xe8;" horiz-adv-x="1116" d="M637 1225h-145l-226 317h187zM1034 512q0 -39 -2 -59h-774q14 -145 96 -230.5t221 -85.5q94 0 158 38t125 132l127 -88q-132 -239 -416 -239q-223 0 -355 148.5t-132 381.5t132.5 383.5t354.5 150.5q216 0 340.5 -147t124.5 -385zM573 889q-130 0 -210 -79.5t-101 -215.5 h608q-14 137 -91 216t-206 79z" />
<glyph unicode="&#xe9;" horiz-adv-x="1116" d="M872 1542l-223 -317h-147l184 317h186zM1034 512q0 -39 -2 -59h-774q14 -145 96 -230.5t221 -85.5q94 0 158 38t125 132l127 -88q-132 -239 -416 -239q-223 0 -355 148.5t-132 381.5t132.5 383.5t354.5 150.5q216 0 340.5 -147t124.5 -385zM573 889q-130 0 -210 -79.5 t-101 -215.5h608q-14 137 -91 216t-206 79z" />
<glyph unicode="&#xea;" horiz-adv-x="1116" d="M571 1454l-157 -262h-148l209 350h193l209 -350h-148zM1034 512q0 -39 -2 -59h-774q14 -145 96 -230.5t221 -85.5q94 0 158 38t125 132l127 -88q-132 -239 -416 -239q-223 0 -355 148.5t-132 381.5t132.5 383.5t354.5 150.5q216 0 340.5 -147t124.5 -385zM573 889 q-130 0 -210 -79.5t-101 -215.5h608q-14 137 -91 216t-206 79z" />
<glyph unicode="&#xeb;" horiz-adv-x="1116" d="M381 1221q-50 0 -85.5 33.5t-35.5 82.5q0 51 35.5 86t85.5 35t84.5 -35t34.5 -86q0 -49 -34.5 -82.5t-84.5 -33.5zM764 1221q-48 0 -83.5 33.5t-35.5 82.5q0 50 35.5 85.5t83.5 35.5q50 0 84.5 -35t34.5 -86q0 -49 -34.5 -82.5t-84.5 -33.5zM1034 512q0 -39 -2 -59h-774 q14 -145 96 -230.5t221 -85.5q94 0 158 38t125 132l127 -88q-132 -239 -416 -239q-223 0 -355 148.5t-132 381.5t132.5 383.5t354.5 150.5q216 0 340.5 -147t124.5 -385zM573 889q-130 0 -210 -79.5t-101 -215.5h608q-14 137 -91 216t-206 79z" />
<glyph unicode="&#xec;" horiz-adv-x="487" d="M164 1219l-225 317h186l184 -317h-145zM154 0v1024h180v-1024h-180z" />
<glyph unicode="&#xed;" horiz-adv-x="487" d="M174 1219l184 317h187l-223 -317h-148zM154 0v1024h180v-1024h-180z" />
<glyph unicode="&#xee;" horiz-adv-x="487" d="M-61 1186l208 350h193l209 -350h-148l-157 262l-158 -262h-147zM154 0v1024h180v-1024h-180z" />
<glyph unicode="&#xef;" horiz-adv-x="487" d="M53 1214q-50 0 -85.5 34t-35.5 83q0 51 35.5 86t85.5 35t84.5 -35t34.5 -86q0 -49 -34.5 -83t-84.5 -34zM436 1214q-48 0 -83.5 34t-35.5 83q0 50 35.5 85.5t83.5 35.5q50 0 84.5 -35t34.5 -86q0 -49 -34.5 -83t-84.5 -34zM154 0v1024h180v-1024h-180z" />
<glyph unicode="&#xf0;" horiz-adv-x="1269" d="M809 1401q174 -141 275.5 -375.5t101.5 -513.5q0 -145 -73.5 -267.5t-200.5 -193.5t-277 -71q-151 0 -278.5 71t-201 193.5t-73.5 267.5q0 109 43.5 208t117.5 170t176.5 112.5t215.5 41.5q164 0 299 -83q-77 204 -221 317l-107 -135l-63 49l104 133q-138 85 -313 88 l35 148q201 0 374 -115l93 117l63 -47zM635 141q154 0 261.5 108t107.5 263t-107.5 264t-261.5 109q-155 0 -264 -109t-109 -264t109 -263t264 -108z" />
<glyph unicode="&#xf1;" horiz-adv-x="1204" d="M385 1219h-115q-17 115 39.5 189.5t153.5 74.5q117 0 190 -113q36 -59 92 -59q48 0 71 42.5t11 110.5h115q17 -113 -38 -188.5t-154 -75.5q-117 0 -191 111q-39 59 -92 59q-48 0 -71 -42t-11 -109zM659 1044q172 0 286 -112t114 -285v-647h-182v627q0 110 -76.5 184 t-190.5 74q-115 0 -195.5 -78t-80.5 -189v-618h-180v1024h165l9 -135q60 73 145.5 114t185.5 41z" />
<glyph unicode="&#xf2;" horiz-adv-x="1161" d="M500 1219l-226 317h187l184 -317h-145zM582 -20q-220 0 -360 153.5t-140 378.5q0 148 62 269t177 192t261 71q145 0 260 -71t177 -192t62 -269q0 -147 -62 -268t-177 -192.5t-260 -71.5zM582 141q145 0 233 106t88 265t-88.5 266t-232.5 107q-147 0 -234.5 -106.5 t-87.5 -266.5t87.5 -265.5t234.5 -105.5z" />
<glyph unicode="&#xf3;" horiz-adv-x="1161" d="M510 1219l184 317h187l-224 -317h-147zM582 -20q-220 0 -360 153.5t-140 378.5q0 148 62 269t177 192t261 71q145 0 260 -71t177 -192t62 -269q0 -147 -62 -268t-177 -192.5t-260 -71.5zM582 141q145 0 233 106t88 265t-88.5 266t-232.5 107q-147 0 -234.5 -106.5 t-87.5 -266.5t87.5 -265.5t234.5 -105.5z" />
<glyph unicode="&#xf4;" horiz-adv-x="1161" d="M274 1186l209 350h193l209 -350h-148l-157 262l-158 -262h-148zM582 -20q-220 0 -360 153.5t-140 378.5q0 148 62 269t177 192t261 71q145 0 260 -71t177 -192t62 -269q0 -147 -62 -268t-177 -192.5t-260 -71.5zM582 141q145 0 233 106t88 265t-88.5 266t-232.5 107 q-147 0 -234.5 -106.5t-87.5 -266.5t87.5 -265.5t234.5 -105.5z" />
<glyph unicode="&#xf5;" horiz-adv-x="1161" d="M725 1200q-116 0 -190 111q-39 59 -93 59q-48 0 -71 -42t-11 -109h-114q-17 115 39 189.5t153 74.5q118 0 191 -113q36 -59 92 -59q48 0 71 42.5t11 110.5h115q17 -113 -38.5 -188.5t-154.5 -75.5zM582 -20q-220 0 -360 153.5t-140 378.5q0 148 62 269t177 192t261 71 q145 0 260 -71t177 -192t62 -269q0 -147 -62 -268t-177 -192.5t-260 -71.5zM582 141q145 0 233 106t88 265t-88.5 266t-232.5 107q-147 0 -234.5 -106.5t-87.5 -266.5t87.5 -265.5t234.5 -105.5z" />
<glyph unicode="&#xf6;" horiz-adv-x="1161" d="M389 1214q-50 0 -85.5 34t-35.5 83q0 51 35.5 86t85.5 35t84.5 -35t34.5 -86q0 -49 -34.5 -83t-84.5 -34zM772 1214q-48 0 -83.5 34t-35.5 83q0 50 35.5 85.5t83.5 35.5q50 0 84.5 -35t34.5 -86q0 -49 -34.5 -83t-84.5 -34zM582 -20q-220 0 -360 153.5t-140 378.5 q0 148 62 269t177 192t261 71q145 0 260 -71t177 -192t62 -269q0 -147 -62 -268t-177 -192.5t-260 -71.5zM582 141q145 0 233 106t88 265t-88.5 266t-232.5 107q-147 0 -234.5 -106.5t-87.5 -266.5t87.5 -265.5t234.5 -105.5z" />
<glyph unicode="&#xf7;" horiz-adv-x="1476" d="M737 803q-43 0 -75.5 31.5t-32.5 76.5q0 44 32.5 76.5t75.5 32.5q44 0 77.5 -32.5t33.5 -76.5q0 -45 -33 -76.5t-78 -31.5zM123 514v98h1229v-98h-1229zM737 106q-43 0 -75.5 32t-32.5 77q0 44 32.5 76.5t75.5 32.5q44 0 77.5 -32.5t33.5 -76.5q0 -45 -33 -77t-78 -32z " />
<glyph unicode="&#xf8;" horiz-adv-x="1161" d="M907 924q82 -73 128 -180t46 -232q0 -147 -62 -268t-177 -192.5t-260 -71.5q-146 0 -263 71l-75 -114h-97l109 161q-83 72 -128.5 180t-45.5 234q0 148 62 269t177 192t261 71q147 0 262 -73l78 116h94zM260 512q0 -164 92 -270l400 592q-73 51 -170 51 q-147 0 -234.5 -106.5t-87.5 -266.5zM582 141q145 0 233 106t88 265q0 160 -92 270l-399 -594q71 -47 170 -47z" />
<glyph unicode="&#xf9;" d="M674 1219h-146l-225 317h186zM881 1024h182v-1024h-166l-10 137q-58 -73 -143 -115t-183 -42q-170 0 -286.5 119t-116.5 288v637h180v-618q0 -110 78 -187.5t190 -77.5q114 0 194.5 77.5t80.5 187.5v618z" />
<glyph unicode="&#xfa;" d="M909 1536l-223 -317h-147l184 317h186zM881 1024h182v-1024h-166l-10 137q-58 -73 -143 -115t-183 -42q-170 0 -286.5 119t-116.5 288v637h180v-618q0 -110 78 -187.5t190 -77.5q114 0 194.5 77.5t80.5 187.5v618z" />
<glyph unicode="&#xfb;" d="M608 1448l-157 -262h-148l209 350h193l208 -350h-147zM881 1024h182v-1024h-166l-10 137q-58 -73 -143 -115t-183 -42q-170 0 -286.5 119t-116.5 288v637h180v-618q0 -110 78 -187.5t190 -77.5q114 0 194.5 77.5t80.5 187.5v618z" />
<glyph unicode="&#xfc;" d="M418 1214q-50 0 -85.5 34t-35.5 83q0 51 35.5 86t85.5 35t84.5 -35t34.5 -86q0 -49 -34.5 -83t-84.5 -34zM801 1214q-48 0 -83.5 34t-35.5 83q0 50 35.5 85.5t83.5 35.5q50 0 84.5 -35t34.5 -86q0 -49 -34.5 -83t-84.5 -34zM881 1024h182v-1024h-166l-10 137 q-58 -73 -143 -115t-183 -42q-170 0 -286.5 119t-116.5 288v637h180v-618q0 -110 78 -187.5t190 -77.5q114 0 194.5 77.5t80.5 187.5v618z" />
<glyph unicode="&#xfd;" d="M909 1536l-223 -317h-147l184 317h186zM1063 1024v-1051q0 -143 -53.5 -253.5t-167 -177t-273.5 -66.5q-205 0 -356 98v197q153 -133 371 -133q149 0 223 88t74 247v158q-58 -71 -141 -111t-179 -40q-170 0 -286.5 119t-116.5 288v637h180v-618q0 -110 78 -187.5 t190 -77.5q114 0 194.5 77.5t80.5 187.5v618h182z" />
<glyph unicode="&#xfe;" horiz-adv-x="1329" d="M731 1044q107 0 202.5 -41.5t164 -112.5t109 -169.5t40.5 -208.5q0 -145 -68 -267.5t-187 -193.5t-261 -71q-123 0 -226 55t-171 151v-696h-180v2046h180v-698q68 96 171 151t226 55zM707 141q155 0 262.5 108t107.5 263q0 156 -107.5 264.5t-262.5 108.5 q-154 0 -262.5 -109t-108.5 -264t108.5 -263t262.5 -108z" />
<glyph unicode="&#xff;" d="M418 1214q-50 0 -85.5 34t-35.5 83q0 51 35.5 86t85.5 35t84.5 -35t34.5 -86q0 -49 -34.5 -83t-84.5 -34zM801 1214q-48 0 -83.5 34t-35.5 83q0 50 35.5 85.5t83.5 35.5q50 0 84.5 -35t34.5 -86q0 -49 -34.5 -83t-84.5 -34zM1063 1024v-1051q0 -143 -53.5 -253.5 t-167 -177t-273.5 -66.5q-205 0 -356 98v197q153 -133 371 -133q149 0 223 88t74 247v158q-58 -71 -141 -111t-179 -40q-170 0 -286.5 119t-116.5 288v637h180v-618q0 -110 78 -187.5t190 -77.5q114 0 194.5 77.5t80.5 187.5v618h182z" />
<glyph unicode="&#x152;" horiz-adv-x="2574" d="M2390 1376h-670v-528h582v-160h-582v-528h670v-160h-821v301q-111 -149 -277.5 -235t-359.5 -86q-161 0 -307 62.5t-251.5 167.5t-168 251t-62.5 307t62.5 307t168 251t251.5 167.5t307 62.5q193 0 359.5 -86t277.5 -235v301h821v-160zM934 160q166 0 306 81t221 221 t81 306t-81 306.5t-221 222t-306 81.5q-167 0 -307 -81.5t-220.5 -221.5t-80.5 -307q0 -166 80.5 -306t220.5 -221t307 -81z" />
<glyph unicode="&#x153;" horiz-adv-x="1939" d="M1858 512q0 -29 -3 -59h-774q14 -146 96.5 -231t221.5 -85q93 0 157 38t125 132l127 -88q-132 -239 -415 -239q-134 0 -237.5 56t-166.5 157q-68 -99 -173 -156t-234 -57q-220 0 -360 153.5t-140 378.5q0 148 62 269t177 192t261 71q131 0 236 -57t171 -158 q63 101 167.5 158t236.5 57q216 0 340.5 -147t124.5 -385zM1397 889q-131 0 -211 -79t-101 -216h609q-15 137 -92 216t-205 79zM582 141q145 0 233 106t88 265t-88.5 266t-232.5 107q-147 0 -234.5 -106.5t-87.5 -266.5t87.5 -265.5t234.5 -105.5z" />
<glyph unicode="&#x178;" horiz-adv-x="1337" d="M479 1726q-50 0 -85.5 34t-35.5 83q0 51 35.5 86t85.5 35t84.5 -35t34.5 -86q0 -49 -34.5 -83t-84.5 -34zM862 1726q-48 0 -83.5 34t-35.5 83q0 50 35.5 85.5t83.5 35.5q50 0 84.5 -35t34.5 -86q0 -49 -34.5 -83t-84.5 -34zM1298 1536l-534 -807v-729h-189v725l-536 811 h211l420 -649l420 649h208z" />
<glyph unicode="&#x2c6;" horiz-adv-x="102" d="M61 1186l209 350h193l209 -350h-148l-157 262l-158 -262h-148z" />
<glyph unicode="&#x2dc;" horiz-adv-x="104" d="M545 1262q-117 0 -191 110q-40 60 -92 60q-48 0 -71 -42.5t-11 -109.5h-114q-17 115 39 189.5t153 74.5q119 0 191 -112q37 -60 92 -60q48 0 71 42.5t11 111.5h114q17 -113 -38 -188.5t-154 -75.5z" />
<glyph unicode="&#x2000;" horiz-adv-x="1024" />
<glyph unicode="&#x2001;" horiz-adv-x="2048" />
<glyph unicode="&#x2002;" horiz-adv-x="1024" />
<glyph unicode="&#x2003;" horiz-adv-x="2048" />
<glyph unicode="&#x2004;" horiz-adv-x="682" />
<glyph unicode="&#x2005;" horiz-adv-x="512" />
<glyph unicode="&#x2006;" horiz-adv-x="341" />
<glyph unicode="&#x2007;" horiz-adv-x="341" />
<glyph unicode="&#x2008;" horiz-adv-x="256" />
<glyph unicode="&#x2009;" horiz-adv-x="409" />
<glyph unicode="&#x200a;" horiz-adv-x="113" />
<glyph unicode="&#x2010;" horiz-adv-x="1087" d="M184 469v127h717v-127h-717z" />
<glyph unicode="&#x2011;" horiz-adv-x="1087" d="M184 469v127h717v-127h-717z" />
<glyph unicode="&#x2012;" horiz-adv-x="1087" d="M184 469v127h717v-127h-717z" />
<glyph unicode="&#x2013;" horiz-adv-x="1394" d="M184 469v127h1024v-127h-1024z" />
<glyph unicode="&#x2014;" horiz-adv-x="2084" d="M18 469v127h2048v-127h-2048z" />
<glyph unicode="&#x2018;" horiz-adv-x="507" d="M201 946q-112 0 -137 148.5t47 298.5t194 153v-90q-59 -3 -100 -92q-36 -76 -29 -139q5 -40 27 -41q49 0 82.5 -34.5t33.5 -84.5q0 -51 -33.5 -85t-84.5 -34z" />
<glyph unicode="&#x2019;" horiz-adv-x="397" d="M90 946v88q55 3 93 77t38 142q0 54 -26 54q-50 0 -84.5 34.5t-34.5 85.5t35 85t86 34q67 0 102 -61.5t35 -153.5q0 -89 -27.5 -175.5t-85 -147.5t-131.5 -62z" />
<glyph unicode="&#x201a;" horiz-adv-x="503" d="M96 -381v90q61 0 102.5 69.5t41.5 137.5q0 66 -39 66q-50 0 -84.5 34.5t-34.5 83.5q0 50 35 84.5t86 34.5q73 0 111 -63t38 -160q0 -65 -17.5 -131t-49 -121t-81.5 -90t-108 -35z" />
<glyph unicode="&#x201c;" horiz-adv-x="874" d="M504 1563v-90q-36 -1 -67.5 -39.5t-47.5 -88t-16 -90.5q0 -55 26 -55q50 0 84.5 -34t34.5 -85t-34.5 -84.5t-84.5 -33.5q-69 0 -104 60.5t-35 154.5q0 89 28 175.5t85.5 147.5t130.5 62zM817 1563v-90q-37 -1 -68.5 -40t-47 -88t-15.5 -90q0 -55 27 -55q50 0 84 -34 t34 -85t-34.5 -84.5t-85.5 -33.5q-67 0 -102.5 61t-35.5 154q0 89 27.5 175.5t85 147.5t131.5 62z" />
<glyph unicode="&#x201d;" horiz-adv-x="827" d="M94 946v88q55 3 93 77t38 142q0 54 -26 54q-50 0 -84.5 34.5t-34.5 85.5t35 85t86 34q67 0 102 -61.5t35 -153.5q0 -89 -27.5 -175.5t-85 -147.5t-131.5 -62zM408 946v88q54 3 92.5 77.5t38.5 141.5q0 54 -27 54q-50 0 -84.5 34.5t-34.5 85.5t34.5 85t84.5 34 q68 0 103.5 -61t35.5 -154q0 -89 -27.5 -175.5t-85 -147.5t-130.5 -62z" />
<glyph unicode="&#x201e;" horiz-adv-x="843" d="M96 -381v90q61 0 102.5 69.5t41.5 137.5q0 66 -39 66q-50 0 -84.5 34.5t-34.5 83.5q0 50 35 84.5t86 34.5q73 0 111 -63t38 -160q0 -65 -17.5 -131t-49 -121t-81.5 -90t-108 -35zM453 -381v90q40 0 74 35.5t50.5 82.5t16.5 89q0 66 -37 66q-50 0 -84.5 34.5t-34.5 83.5 q0 50 35 84.5t84 34.5q73 0 111.5 -63t38.5 -160q0 -88 -29 -173t-89 -144.5t-136 -59.5z" />
<glyph unicode="&#x2022;" horiz-adv-x="968" d="M485 408q-105 0 -182.5 75t-77.5 183q0 103 78 180.5t182 77.5q103 0 180.5 -77.5t77.5 -180.5q0 -107 -77 -182.5t-181 -75.5z" />
<glyph unicode="&#x2026;" horiz-adv-x="1447" d="M186 -20q-49 0 -83.5 35t-34.5 85q0 48 34.5 83.5t83.5 35.5t85 -35.5t36 -83.5q0 -49 -35.5 -84.5t-85.5 -35.5zM616 -20q-50 0 -85 35t-35 85q0 48 35.5 83.5t84.5 35.5t84 -35.5t35 -83.5q0 -50 -35 -85t-84 -35zM1024 -20q-48 0 -83.5 35.5t-35.5 84.5q0 47 36 83 t83 36q49 0 85 -35.5t36 -83.5q0 -49 -35.5 -84.5t-85.5 -35.5z" />
<glyph unicode="&#x202f;" horiz-adv-x="409" />
<glyph unicode="&#x2039;" horiz-adv-x="712" d="M416 195l-312 376l312 377h153l-311 -377l311 -376h-153z" />
<glyph unicode="&#x203a;" horiz-adv-x="712" d="M143 195l312 376l-312 377h154l311 -377l-311 -376h-154z" />
<glyph unicode="&#x205f;" horiz-adv-x="512" />
<glyph unicode="&#x20ac;" horiz-adv-x="1347" d="M731 121q104 0 190 68.5t105 170.5l137 -59q-41 -139 -164 -230t-268 -91q-202 0 -330.5 132t-128.5 339v88h-190l61 120h129v205h-190l61 121h129v100q0 209 128 340t331 131q145 0 268 -91t164 -230l-137 -57q-18 101 -104.5 169t-190.5 68q-145 0 -231 -89.5 t-86 -240.5v-100h426l-60 -121h-366v-205h426l-60 -120h-366v-88q0 -150 86.5 -240t230.5 -90z" />
<glyph unicode="&#x2122;" horiz-adv-x="1472" d="M31 1452v84h489v-84h-198v-637h-95v637h-196zM1239 1536h100v-721h-94v569l-270 -401l-270 399v-567h-97v721h103l264 -393z" />
<glyph unicode="&#x25fc;" horiz-adv-x="1024" d="M0 1024h1024v-1024h-1024v1024z" />
</font>
</defs>
</svg>
